<?xml version="1.0" standalone="no"?>
<!DOCTYPE svg PUBLIC "-//W3C//DTD SVG 1.1//EN" "http://www.w3.org/Graphics/SVG/1.1/DTD/svg11.dtd" >
<svg xmlns="http://www.w3.org/2000/svg" xmlns:xlink="http://www.w3.org/1999/xlink" version="1.1">
<metadata></metadata>
<defs>
<font id="nexalight" horiz-adv-x="1292" >
<font-face units-per-em="2048" ascent="1434" descent="-614" />
<missing-glyph horiz-adv-x="542" />
<glyph horiz-adv-x="0" />
<glyph horiz-adv-x="682" />
<glyph unicode=" "  horiz-adv-x="542" />
<glyph unicode="&#x09;" horiz-adv-x="542" />
<glyph unicode="&#xa0;" horiz-adv-x="542" />
<glyph unicode="!" horiz-adv-x="489" d="M168 72q0 50 40.5 70.5t81 0t40.5 -70.5t-40.5 -70.5t-81 0t-40.5 70.5zM193 289v1145h104v-1145h-104z" />
<glyph unicode="&#x22;" horiz-adv-x="692" d="M158 918v524h92v-524h-92zM444 918v524h91v-524h-91z" />
<glyph unicode="#" horiz-adv-x="1288" d="M76 350v82h182l150 580h-175v78h193l84 344h94l-84 -344h412l86 344h94l-86 -344h186v-78h-204l-148 -580h195v-82h-213l-86 -350h-94l86 350h-412l-86 -350h-94l86 350h-166zM352 432h414l147 580h-411z" />
<glyph unicode="$" horiz-adv-x="1320" d="M82 274l98 50q31 -60 87 -105.5t124.5 -70t138 -36.5t138.5 -12q57 0 115.5 8t121 28.5t110 51.5t78.5 81t31 112q0 35 -8.5 65.5t-22 54.5t-39 45.5t-47.5 36.5t-60.5 29.5t-65.5 23.5t-74 20t-75 16.5t-79 15.5q-213 41 -301 76q-175 69 -216 206q-12 40 -13 87 q-2 77 28 141t79.5 107t116 74t135.5 46t141 19v205h92v-205q153 -8 282.5 -69t194.5 -179l-96 -53q-54 100 -174.5 148t-253.5 50q-69 0 -140.5 -15t-141 -45.5t-112.5 -87.5t-41 -132q1 -38 13.5 -69.5t32 -55t53.5 -43.5t66 -33.5t82.5 -27t90.5 -22t101 -19.5 q214 -41 301 -73q189 -68 240 -207q22 -59 22 -132q-1 -97 -49 -172t-126.5 -119t-166 -67t-180.5 -27v-199h-90v199q-174 7 -323 76t-218 204z" />
<glyph unicode="%" horiz-adv-x="1478" d="M77 1142q0 57 20 111t57.5 96.5t98.5 68.5t136 26q76 0 137 -26t98.5 -68.5t58 -96.5t20.5 -111t-20.5 -111t-58 -96.5t-98.5 -68.5t-137 -26q-75 0 -136 26t-98.5 68.5t-57.5 96.5t-20 111zM174.5 1188.5q-11.5 -45.5 0.5 -91t36.5 -83t72 -61t107.5 -23.5 q59 0 105.5 23.5t70 61t34.5 83t-0.5 91t-35.5 83t-70.5 61t-105.5 23.5q-60 0 -107.5 -23.5t-71.5 -61t-35.5 -83zM223 0h115l911 1440l-112 -2zM775 290q0 57 20 111t57.5 96.5t98.5 68.5t136 26q76 0 137 -26t98.5 -68.5t58 -96.5t20.5 -111t-20.5 -111t-58 -96.5 t-98.5 -68.5t-137 -26q-75 0 -136 26t-98.5 68.5t-57.5 96.5t-20 111zM872.5 327q-3.5 -36 0.5 -72t22 -68.5t43.5 -57.5t65 -40t86.5 -15t86 15t64.5 40t43 57.5t21 68.5t-0.5 72t-22 68.5t-43.5 57.5t-65 40t-86.5 15t-86 -15t-64.5 -40t-43 -57.5t-21 -68.5z" />
<glyph unicode="&#x26;" horiz-adv-x="1409" d="M129 381q0 125 85 218t204 132q-116 35 -190 124t-74 206q0 170 135 275.5t375 105.5q75 0 136.5 -8.5t123.5 -32t104.5 -62t69 -103t26.5 -149.5h-96q0 65 -20.5 113.5t-53 77t-82 45.5t-99 23t-111.5 6q-198 0 -302 -80.5t-102 -208.5q1 -63 27 -113.5t67.5 -82.5 t96.5 -53t108.5 -29.5t108.5 -8.5h608v-88h-131v-313q0 -62 8 -111t27 -91t55 -65t88 -22v-86q-86 -12 -151 39t-89 143q-37 -61 -86.5 -102.5t-107 -61.5t-111 -28t-117.5 -8q-257 0 -393.5 106t-136.5 293zM233 381q0 -142 106.5 -222.5t317.5 -80.5q54 0 104.5 7.5 t105 28t94.5 52.5t66 86t26 123v313h-394q-102 0 -185.5 -27t-134.5 -71.5t-78.5 -98.5t-27.5 -110z" />
<glyph unicode="'" horiz-adv-x="405" d="M158 918v524h90v-524h-90z" />
<glyph unicode="(" horiz-adv-x="657" d="M104 600q0 183 48.5 349.5t151.5 314t249 241.5l53 -78q-126 -88 -216 -220t-134.5 -281t-46 -313t40 -315t133 -289t223.5 -234l-53 -80q-146 94 -249 241.5t-151.5 314t-48.5 349.5z" />
<glyph unicode=")" horiz-adv-x="659" d="M53 -223q132 96 223.5 234t133 289.5t40 315.5t-46 313t-134.5 281t-216 220l53 77q146 -94 249 -241.5t151.5 -314t48.5 -349.5t-48.5 -349.5t-151.5 -314t-249 -241.5z" />
<glyph unicode="*" horiz-adv-x="704" d="M127 1249l23 74l161 -53l-4 166h84l-4 -166l174 51l23 -74l-176 -45l112 -143l-67 -49l-105 149l-108 -149l-68 47l117 145z" />
<glyph unicode="+" horiz-adv-x="1021" d="M104 651v99h359v352h96v-352h359v-99h-359v-362h-96v362h-359z" />
<glyph unicode="," horiz-adv-x="460" d="M135 -182l64 170q-49 18 -49 73q0 50 40 70.5t80.5 0t40.5 -70.5q0 -16 -6 -34l-82 -209h-88z" />
<glyph unicode="-" horiz-adv-x="1015" d="M150 535v102h716v-102h-716z" />
<glyph unicode="." horiz-adv-x="460" d="M150 61q0 50 40 70.5t80.5 0t40.5 -70.5t-40.5 -70.5t-80.5 0t-40 70.5z" />
<glyph unicode="/" horiz-adv-x="980" d="M55 -168l764 1722h111l-766 -1722h-109z" />
<glyph unicode="0" horiz-adv-x="1374" d="M139 547v342q0 136 47 246t124.5 177.5t176 104t201.5 36.5t201.5 -37t176 -104.5t124.5 -177t47 -245.5v-342q0 -136 -47 -245.5t-124.5 -177t-176 -104.5t-201.5 -37t-201.5 36.5t-176 104t-124.5 177.5t-47 246zM248 547q0 -111 38 -201t99.5 -145t141 -84.5 t161.5 -29.5t161.5 30t141 85t99.5 144.5t38 200.5v342q0 110 -38 199.5t-99.5 144.5t-141 85t-161.5 30t-161.5 -30t-141 -84.5t-99.5 -144t-38 -200.5v-342z" />
<glyph unicode="1" horiz-adv-x="821" d="M102 0v96h279v1213l-264 -66v96l375 95v-1338h280v-96h-670z" />
<glyph unicode="2" horiz-adv-x="1370" d="M137 0v324q0 92 33 163t86.5 114.5t128 72t149.5 39t160 10.5q60 0 118.5 9t120 31.5t107.5 56.5t75.5 89t29.5 125q0 73 -28.5 130t-73.5 92.5t-105.5 58.5t-120.5 32t-123 9q-61 0 -119 -8.5t-117.5 -30t-103.5 -54.5t-72 -87t-28 -123h-109q0 88 32.5 158t86 114.5 t126.5 73.5t147.5 41t156.5 12t158.5 -13.5t149 -45t126 -78.5t86 -119t33.5 -162q0 -105 -49.5 -187t-130.5 -129t-175 -71t-194 -24q-452 -4 -452 -297v-220h987v-106h-1096z" />
<glyph unicode="3" horiz-adv-x="1357" d="M121 365h106q0 -54 16.5 -97t42.5 -71.5t65 -50t77 -33t86.5 -18.5t86.5 -9t83 -2q215 0 329.5 85t114.5 214q0 122 -119 214.5t-327 92.5h-238v92h232q103 0 186.5 26t135 68.5t79.5 93t29 103.5q2 120 -110 203.5t-316 83.5q-432 0 -432 -277h-105q1 86 34 152 t85.5 106.5t124.5 66t142.5 35t148.5 9.5q247 0 386.5 -106.5t141.5 -272.5q0 -120 -87.5 -215t-215.5 -119q134 -26 232 -125t98 -227q0 -176 -145 -290.5t-406 -114.5q-81 0 -154.5 9.5t-149.5 36t-131.5 68t-90.5 110.5t-35 159z" />
<glyph unicode="4" horiz-adv-x="1341" d="M55 457l830 977h182v-1006h180v-104h-180v-324h-111v324h-878zM174 428h782v924z" />
<glyph unicode="5" horiz-adv-x="1345" d="M131 395h111q0 -72 28.5 -126.5t71.5 -85.5t105 -50.5t118.5 -26t120.5 -6.5q221 0 334 92t113 242q0 55 -11.5 102.5t-40 93t-73 77.5t-116 51.5t-163.5 19.5h-563v656h997v-99h-895v-458h461q113 0 202.5 -24.5t147 -66t95.5 -99t53.5 -119.5t15.5 -132q0 -72 -21 -137 t-65.5 -122t-109.5 -98t-157.5 -65t-203.5 -24q-83 0 -158 11t-149 40t-127.5 73.5t-86.5 116.5t-34 164z" />
<glyph unicode="6" horiz-adv-x="1404" d="M166 430v627q0 98 46.5 175.5t124.5 125t173.5 72t200.5 24.5q147 0 265 -39t195 -122.5t86 -200.5h-110q-9 125 -130.5 194.5t-305.5 69.5q-83 0 -160 -19t-139.5 -55t-100 -94.5t-37.5 -130.5v-391q80 114 194.5 158t264.5 44q84 0 162 -15t151 -49.5t127 -84.5 t86.5 -125.5t32.5 -167.5q0 -117 -49 -205.5t-131.5 -138.5t-178 -74t-202.5 -24q-85 0 -163.5 15t-152.5 49t-128.5 84.5t-87.5 127t-33 170.5zM276 428q-1 -92 40.5 -161t110.5 -106.5t145 -55t159 -17.5q65 0 126 9.5t121.5 34t105 62t72.5 97t28 135.5q0 85 -41 152.5 t-108 107.5t-144.5 61t-157.5 21t-158 -20.5t-146 -60.5t-110 -107t-43 -152z" />
<glyph unicode="7" horiz-adv-x="1148" d="M66 1331v103h1044l14 -91l-778 -1343h-125l774 1331h-929z" />
<glyph unicode="8" horiz-adv-x="1435" d="M127 377q0 140 94.5 237t229.5 125q-136 42 -217.5 123.5t-81.5 208.5q0 86 35.5 155t92.5 112.5t133 72.5t151.5 41t154.5 12t154 -11t151 -39.5t133 -72t92.5 -113t36.5 -157.5q0 -86 -44 -155.5t-111 -111.5t-156 -69q136 -28 235 -125.5t99 -232.5 q0 -89 -36.5 -160.5t-95 -117t-137 -75.5t-158 -42.5t-163.5 -12.5q-83 0 -163 12.5t-158.5 42.5t-137.5 75.5t-95.5 117t-37.5 160.5zM238 377q0 -68 34 -122.5t86 -87.5t118.5 -54.5t126.5 -30t116 -8.5q55 0 114.5 8.5t126.5 30t119 54.5t86 87.5t35 122.5 q0 69 -34.5 125t-87 91t-119 59.5t-126.5 34t-114 9.5q-55 0 -115 -9t-126.5 -32.5t-119 -58.5t-86.5 -92t-34 -127zM260 1071q0 -77 46.5 -135t120 -88t147 -43.5t145.5 -13.5q55 0 113 8t121.5 28t112 50.5t80.5 80.5t32 113q0 66 -31.5 119t-80 85.5t-111 54.5t-121.5 31 t-115 9q-57 0 -115 -8t-121.5 -29.5t-111.5 -54t-79.5 -86t-31.5 -121.5z" />
<glyph unicode="9" horiz-adv-x="1404" d="M113 1012q0 117 49 205.5t131.5 138.5t178 74t202.5 24q85 0 163.5 -15t152.5 -49t128.5 -84.5t87.5 -127t33 -170.5v-627q0 -98 -46.5 -175.5t-124.5 -125t-173.5 -72t-200.5 -24.5q-147 0 -265.5 39t-195.5 122.5t-86 200.5h111q9 -125 130.5 -194.5t305.5 -69.5 q83 0 160.5 19t140 55t100.5 94.5t38 130.5v391q-80 -114 -195.5 -158.5t-265.5 -44.5q-84 0 -162 15.5t-151 49.5t-127 84.5t-86.5 126t-32.5 167.5zM221 1012q0 -73 27.5 -132.5t72 -98t104.5 -64t121.5 -36.5t125.5 -11q80 0 158 20.5t145.5 60.5t109.5 107t43 152 q1 74 -27 134t-73 97.5t-105.5 62.5t-122 35.5t-126.5 10.5t-126 -9.5t-121.5 -34t-105 -62t-72.5 -97t-28 -135.5z" />
<glyph unicode=":" horiz-adv-x="460" d="M150 61q0 50 40 70.5t80.5 0t40.5 -70.5t-40.5 -70.5t-80.5 0t-40 70.5zM150 676q0 50 40 70.5t80.5 0t40.5 -70.5t-40.5 -70.5t-80.5 0t-40 70.5z" />
<glyph unicode=";" horiz-adv-x="481" d="M150 -182l63 170q-49 18 -49 73q0 50 40.5 70.5t81 0t40.5 -70.5q0 -13 -7 -34l-81 -209h-88zM164 676q0 50 40.5 70.5t81 0t40.5 -70.5t-40.5 -70.5t-81 0t-40.5 70.5z" />
<glyph unicode="&#x3c;" horiz-adv-x="743" d="M117 610v80l432 381l61 -70l-393 -350l401 -352l-69 -70z" />
<glyph unicode="=" horiz-adv-x="1132" d="M158 395v101h817v-101h-817zM158 799v102h817v-102h-817z" />
<glyph unicode="&#x3e;" horiz-adv-x="743" d="M125 299l401 352l-393 350l62 70l432 -381v-80l-432 -381z" />
<glyph unicode="?" horiz-adv-x="1259" d="M74 1040q0 90 32.5 162.5t86 119.5t126 78t148 44.5t156.5 13.5q84 0 159 -12t148.5 -42t126.5 -76t85.5 -120.5t33.5 -169.5q0 -80 -19.5 -143.5t-46.5 -101.5t-71 -68t-78 -44t-82 -28q-58 -18 -92.5 -31.5t-65.5 -34.5t-45.5 -43t-25.5 -60t-14 -82t-3 -113h-105 q0 212 67 308t257 151q40 12 68 24t59 34t49.5 51t30.5 75t12 106q0 77 -28.5 136t-72 93.5t-105 56t-119.5 29t-123 7.5q-61 0 -118.5 -8.5t-117.5 -31t-104.5 -57t-73 -92t-29.5 -131.5h-106zM510 74q0 50 40 70.5t80 0t40 -70.5t-40 -70.5t-80 0t-40 70.5z" />
<glyph unicode="@" horiz-adv-x="1810" d="M113 629q0 164 55.5 308.5t157 252.5t253.5 170.5t334 62.5q364 0 579.5 -211t215.5 -577q0 -215 -82 -379q-32 -64 -86 -94.5t-103.5 -23.5t-85.5 53t-36 120v-2q-72 -98 -181.5 -153.5t-232.5 -55.5q-140 0 -258.5 68.5t-187 187t-68.5 258.5q0 153 69 271t185.5 180.5 t259.5 62.5q128 0 240.5 -58t173.5 -167v174h90v-764q-1 -52 24 -70.5t58.5 -2.5t56.5 57q68 122 68 338q0 334 -187 514t-512 180q-157 0 -288 -53t-220 -146t-138.5 -222t-49.5 -279q0 -307 189.5 -495.5t506.5 -188.5q146 0 314 84l53 -78q-163 -101 -367 -101 q-244 0 -427 102t-278 278t-95 399zM487 614q0 -172 121 -293.5t293 -121.5q100 0 181.5 36t131.5 94.5t77 133t27 153t-27 153t-77 133t-131.5 94.5t-181.5 36q-177 0 -295.5 -114.5t-118.5 -303.5z" />
<glyph unicode="A" horiz-adv-x="1513" d="M53 0l643 1434h121l643 -1434h-119l-157 352h-856l-156 -352h-119zM371 455h770l-385 872z" />
<glyph unicode="B" horiz-adv-x="1423" d="M203 0v1434h588q93 0 176 -23.5t150 -70t106 -123.5t39 -175q0 -109 -63 -191t-171 -116q133 -36 208 -134.5t75 -225.5q0 -85 -31 -152t-81 -108t-119.5 -67.5t-139.5 -37t-149 -10.5h-588zM313 106h478q49 0 93.5 4.5t93 15t87 31t70.5 49t49.5 72.5t17.5 99 q-1 80 -35.5 140.5t-92 95t-125.5 51t-144 16.5h-492v-574zM313 784h492q70 0 128.5 12t111 39.5t82.5 80t30 126.5q0 61 -21 111t-56.5 84t-83 57.5t-99 34t-106.5 10.5h-478v-555z" />
<glyph unicode="C" horiz-adv-x="1462" d="M111 709v8q-1 112 27 216q28 108 89 202t147.5 164t208 110.5t265.5 40.5t280.5 -55t241.5 -160l-76 -66q-90 90 -206 136.5t-240 46.5q-122 0 -225.5 -33.5t-178 -92.5t-126.5 -139.5t-77 -174.5q-24 -91 -24 -191v-8q2 -128 43 -240t118 -199t198 -137.5t272 -50.5 q124 0 240.5 46.5t207.5 135.5l74 -69q-105 -105 -241.5 -160t-280.5 -55q-141 0 -261.5 38t-206.5 105.5t-147 159t-91 198.5t-31 224z" />
<glyph unicode="D" horiz-adv-x="1527" d="M203 0v1434h485q141 0 260.5 -39t203 -106t143 -157t89 -191t31.5 -208v-16q0 -103 -24 -201q-26 -106 -84.5 -199.5t-143 -164t-207 -111.5t-268.5 -41h-485zM313 106h375q154 0 276 54.5t195.5 144.5t110.5 200q35 104 35 216v12q-2 91 -26.5 176.5t-74.5 162 t-121 133.5t-173 90.5t-222 33.5h-375v-1223z" />
<glyph unicode="E" horiz-adv-x="1329" d="M203 0v1434h989v-105h-881v-557h840v-100h-840v-566h906v-106h-1014z" />
<glyph unicode="F" horiz-adv-x="1275" d="M203 -2v1436h964v-111h-854v-571h826v-105h-826v-649h-110z" />
<glyph unicode="G" horiz-adv-x="1523" d="M113 716q0 332 205 534q205 204 534 204q144 0 280.5 -55t243.5 -160l-63 -70q-91 90 -213.5 137.5t-247.5 47.5q-123 0 -227 -34.5t-178 -95t-126.5 -141.5t-77.5 -174q-24 -89 -24 -186v-8q0 -128 41 -241t118 -200t199.5 -137.5t274.5 -50.5q119 0 232.5 42t203.5 124 v401h-500v97h605v-537q-231 -231 -541 -231q-177 0 -320 59t-233 160.5t-138 232t-48 282.5z" />
<glyph unicode="H" horiz-adv-x="1540" d="M203 0v1434h110v-682h914v682h110v-1434h-110v651h-914v-651h-110z" />
<glyph unicode="I" horiz-adv-x="514" d="M203 0v1434h108v-1434h-108z" />
<glyph unicode="J" horiz-adv-x="1378" d="M59 541h103q0 -202 131.5 -331.5t331.5 -129.5q204 0 331 122t127 339v796h-548v97h657v-893q0 -172 -74 -301.5t-202 -196t-291 -66.5q-246 0 -406 157.5t-160 406.5z" />
<glyph unicode="K" horiz-adv-x="1208" d="M199 2v1432h110v-654l697 654h133v-11l-721 -675l786 -740v-8h-139l-756 707v-705h-110z" />
<glyph unicode="L" horiz-adv-x="1155" d="M203 0v1434h110v-1330h807v-104h-917z" />
<glyph unicode="M" horiz-adv-x="1763" d="M203 0v1434h131l549 -836l542 836h136v-1434h-109v1274l-549 -840h-37l-553 840v-1274h-110z" />
<glyph unicode="N" horiz-adv-x="1525" d="M203 0v1434h47l964 -1186v1186h109v-1434h-43l-967 1184v-1184h-110z" />
<glyph unicode="O" horiz-adv-x="1667" d="M111 719q0 117 28.5 224.5t87.5 201t143.5 163t203.5 109t260 39.5q175 0 315.5 -61t228 -165t133.5 -236q45 -129 45 -273v-6q-1 -115 -29.5 -222t-87.5 -201.5t-143 -164.5t-203 -111t-259 -41t-259.5 41t-203.5 112t-143.5 165.5t-88 202.5t-28.5 223zM219 717 q1 -124 40.5 -237t114 -203.5t193.5 -144.5t267 -54t268 54t194.5 144.5t114 203.5t39.5 237q0 127 -39 240t-113.5 202.5t-194 142t-269.5 52.5q-120 0 -221.5 -34t-173.5 -93t-122.5 -139.5t-74.5 -174.5q-23 -90 -23 -188v-8z" />
<glyph unicode="P" horiz-adv-x="1372" d="M203 0v1434h628q113 0 204 -40.5t147 -106.5t86.5 -150t30.5 -172t-30.5 -172t-86.5 -150t-147 -106.5t-204 -40.5h-518v-496h-110zM313 596h518q86 0 156 31.5t113 83.5t66 118t23 134.5t-23 134.5t-66 118t-113 83.5t-156 31.5h-518v-735z" />
<glyph unicode="Q" horiz-adv-x="1669" d="M111 729q1 116 30.5 221.5t89 197.5t144 159.5t203 106t258.5 38.5q141 0 260.5 -39t204 -107t143.5 -161t88 -201q27 -105 27 -219v-8q0 -133 -43 -262t-125 -228l182 -176l-70 -71l-180 172q-190 -166 -487 -166q-142 0 -262 39.5t-205 108.5t-144 163t-87 203 q-27 105 -27 221v8zM219 729v-8q0 -99 23 -189q23 -94 73 -175t122.5 -140t174.5 -93t224 -34q149 0 268 51t193.5 139t113.5 199.5t39 237.5q0 129 -39 241.5t-113.5 200.5t-193.5 138.5t-268 50.5q-179 0 -320.5 -81.5t-219 -222.5t-77.5 -315z" />
<glyph unicode="R" horiz-adv-x="1433" d="M203 0v1434h631q112 0 203.5 -38t148.5 -102t87.5 -143t31.5 -164v-6q-1 -86 -29 -161q-30 -78 -85.5 -139t-146 -96.5t-204.5 -35.5l506 -549h-146l-495 543h-392v-543h-110zM313 647h508q181 0 271 92t92 250v6q0 62 -21 119q-22 60 -63.5 109t-110.5 78.5t-155 29.5 h-521v-684z" />
<glyph unicode="S" horiz-adv-x="1345" d="M90 289l98 49q42 -83 126.5 -144t178 -88.5t185.5 -27.5q48 0 95 5t101 17t99 34.5t82.5 54.5t58.5 81.5t21 110.5q0 35 -8.5 65.5t-22 54.5t-39 45.5t-47.5 36.5t-60.5 29.5t-65.5 23.5t-74 20t-75 16.5t-79 15.5q-86 17 -132.5 27.5t-119.5 31.5t-113.5 46t-84 61.5 t-62.5 87.5t-19 115v10q0 81 32 147q34 70 89 114t129 73t147 41t148 12q85 0 150 -9t134 -33.5t129 -75t111 -126.5l-90 -53q-37 60 -87 100.5t-110 60t-114 26.5t-123 8q-55 0 -110 -8t-115 -29t-105 -52.5t-74.5 -83.5t-29.5 -118q0 -38 12.5 -70t31 -55t53.5 -43.5 t66.5 -33.5t83 -26.5t90 -21.5t101.5 -20q214 -41 301 -73q189 -68 240 -207q22 -59 22 -132q-1 -93 -37.5 -165.5t-93.5 -116t-134 -71.5t-150.5 -38.5t-151.5 -10.5q-117 0 -227 31t-209 103.5t-152 177.5z" />
<glyph unicode="T" horiz-adv-x="1208" d="M31 1333v99h1147v-99h-519v-1333h-110v1333h-518z" />
<glyph unicode="U" horiz-adv-x="1470" d="M186 543v891h109v-891q0 -111 38 -201.5t100 -145.5t141 -85t161.5 -30t161.5 30t141 85.5t100 145.5t38 201v891h108v-891q0 -136 -47 -245.5t-124.5 -177t-176 -104.5t-201.5 -37t-201.5 36.5t-176 104t-124.5 177.5t-47 246z" />
<glyph unicode="V" horiz-adv-x="1421" d="M61 1434h119l531 -1311l530 1311h119l-590 -1438h-119z" />
<glyph unicode="W" horiz-adv-x="2207" d="M74 1434h116l443 -1311l440 1311h62l438 -1311l444 1311h119l-506 -1438h-119l-227 672l-180 567l-180 -563l-230 -676h-119z" />
<glyph unicode="X" horiz-adv-x="1236" d="M25 0v2l526 733l-488 695v2h121l434 -613l437 613h119v-2l-488 -695l526 -733v-2h-131l-463 655l-462 -655h-131z" />
<glyph unicode="Y" horiz-adv-x="1349" d="M59 1432v2h129l486 -754l487 754h129v-2l-561 -859v-573h-111v573z" />
<glyph unicode="Z" horiz-adv-x="1216" d="M53 0v47l912 1284h-863v103h1039v-39l-924 -1286h924v-109h-1088z" />
<glyph unicode="[" horiz-adv-x="626" d="M186 -342v1806h371v-98h-264v-1610h264v-98h-371z" />
<glyph unicode="\" horiz-adv-x="978" d="M51 1554h109l764 -1722h-107z" />
<glyph unicode="]" horiz-adv-x="628" d="M72 -242h264v1610h-264v98h370v-1806h-370v98z" />
<glyph unicode="^" horiz-adv-x="1187" d="M113 786l430 648h102l430 -648l-4 -6h-106l-371 568l-371 -568h-106z" />
<glyph unicode="_" horiz-adv-x="1257" d="M150 -53h958v-94h-958v94z" />
<glyph unicode="`" horiz-adv-x="479" d="M59 1434v2h134l153 -246v-8h-98z" />
<glyph unicode="a" d="M98 506q0 151 69.5 270.5t186.5 183.5t258 64q129 0 241 -59.5t173 -173.5v221h100v-1012h-100v215q-71 -115 -179 -173t-235 -58q-141 0 -258 65t-186.5 185.5t-69.5 271.5zM199 506q0 -187 119 -305.5t294 -118.5q102 0 184.5 36.5t133 96t78 135.5t27.5 155t-27.5 155 t-78 135.5t-133 96t-184.5 36.5q-175 0 -294 -117.5t-119 -304.5z" />
<glyph unicode="b" d="M166 0v1434h98v-643q59 118 171 177.5t249 59.5q107 0 199 -35t161 -100t108.5 -165t39.5 -222q0 -244 -143 -383t-363 -139q-132 0 -246 63t-176 176v-223h-98zM266 508q0 -188 117 -307t297 -119q179 0 296.5 111t117.5 313q0 138 -57 236t-149 144t-208 46 q-177 0 -295.5 -118.5t-118.5 -305.5z" />
<glyph unicode="c" horiz-adv-x="1067" d="M98 506q0 235 148 378.5t372 143.5q102 0 198 -38.5t171 -112.5l-63 -64q-60 60 -140.5 90.5t-165.5 30.5q-179 0 -300 -115.5t-121 -312.5t121 -312.5t300 -115.5q83 0 162 32t140 93l67 -68q-75 -75 -171 -113t-198 -38q-143 0 -261 63t-188.5 183.5t-70.5 275.5z" />
<glyph unicode="d" d="M100 506q0 122 39.5 222t108.5 165t161 100t199 35q137 0 249 -59.5t171 -177.5v643h98v-1434h-98v223q-62 -113 -176 -176t-246 -63q-220 0 -363 139t-143 383zM199 506q0 -202 117 -313t296 -111q180 0 297 119t117 307q0 187 -118.5 305.5t-295.5 118.5 q-116 0 -208 -46t-148.5 -144t-56.5 -236z" />
<glyph unicode="e" horiz-adv-x="1202" d="M98 506q0 148 69 268.5t186.5 187t258.5 66.5q87 0 165 -21t145 -66t113 -111q46 -64 67 -160q14 -63 14 -134q0 -37 -4 -77h-911q15 -173 132 -275t279 -102q105 0 207.5 41t157.5 113l72 -58q-71 -93 -190.5 -143.5t-246.5 -50.5q-143 0 -259 62.5t-185.5 182.5 t-69.5 277zM201 547h821q-1 185 -112.5 287t-297.5 102q-162 0 -278 -104t-133 -285z" />
<glyph unicode="f" horiz-adv-x="733" d="M70 915v89h206v104q0 161 72.5 253.5t231.5 92.5q107 0 200 -70l-49 -73q-45 27 -79 39t-77 12q-200 0 -200 -254v-104h334v-89h-334v-915h-99v915h-206z" />
<glyph unicode="g" horiz-adv-x="1241" d="M100 535q0 95 31 177t83 139t119.5 97.5t141.5 60t148 19.5q79 0 166.5 -24t144.5 -64l104 123l66 -57l-105 -123q44 -48 70.5 -85.5t49 -107.5t22.5 -155q0 -92 -33.5 -180t-109.5 -161t-181 -98q144 -32 230 -117t86 -217q0 -116 -72.5 -202t-186.5 -127t-251 -41 t-249.5 46.5t-181.5 139.5t-69 217h100q0 -99 58.5 -170.5t147.5 -104t194 -32.5q79 0 150 15.5t131 47t95 86t35 125.5q0 58 -25 105.5t-65.5 79t-94.5 53.5t-111 31.5t-115 9.5q-234 0 -378.5 131t-144.5 363zM201 535q0 -132 56.5 -223.5t150 -134t215.5 -42.5 q124 0 221 56.5t147.5 147.5t50.5 196q0 101 -35.5 180t-96 125.5t-133.5 70t-154 23.5q-76 0 -148.5 -24.5t-135 -71t-100.5 -125.5t-38 -178z" />
<glyph unicode="h" horiz-adv-x="1204" d="M166 0v1434h96v-611q58 103 154.5 152t210.5 51q207 0 315.5 -121t108.5 -325v-580h-99v580q0 164 -80.5 257t-244.5 93q-158 0 -259.5 -107.5t-101.5 -267.5v-555h-100z" />
<glyph unicode="i" horiz-adv-x="432" d="M137 1341q1 51 41 71q20 10 40 9l40 -9q40 -20 40 -70q0 -52 -40 -72q-20 -10 -40 -10l-40 10q-40 20 -41 71zM166 0h100v1016h-100v-1016z" />
<glyph unicode="j" horiz-adv-x="430" d="M-188 -442q92 -50 182 -50q82 0 137 26t83.5 75.5t39.5 108.5q10 53 10 124v13v1159h-98v-1159q0 -59 -5.5 -98.5t-22 -77.5t-52.5 -57t-92 -19q-83 0 -154 41zM133 1352q0 50 41 70q20 11 40 11l40 -11q41 -20 41 -70t-41 -70q-20 -11 -40 -11l-40 11q-41 20 -41 70z " />
<glyph unicode="k" horiz-adv-x="950" d="M166 0v1434h98v-865l477 443h133v-4l-512 -473l572 -529v-6h-127l-543 496v-496h-98z" />
<glyph unicode="l" horiz-adv-x="460" d="M180 0v1434h101v-1434h-101z" />
<glyph unicode="m" horiz-adv-x="1918" d="M166 0v1012h94l2 -168q50 95 137.5 141.5t192.5 46.5q127 0 230 -61.5t145 -188.5q44 120 147.5 185t226.5 65q187 0 305.5 -119t118.5 -307v-606h-100v606q0 147 -90 239.5t-234 92.5t-234.5 -95.5t-90.5 -242.5v-600h-101v600q0 147 -90.5 241.5t-234.5 94.5 t-234 -94.5t-90 -241.5v-600h-100z" />
<glyph unicode="n" horiz-adv-x="1234" d="M166 0v1012h98v-181q56 99 152 148t209 51q206 0 331 -119t125 -327v-584h-100v582q-1 168 -97 260q-94 90 -256 90h-7q-156 -1 -255.5 -106t-99.5 -263v-563h-100z" />
<glyph unicode="o" horiz-adv-x="1224" d="M98 502q0 157 69 278t185.5 184.5t259.5 63.5t259.5 -63.5t185.5 -184.5t69 -278q0 -235 -147 -376.5t-367 -141.5t-367 141.5t-147 376.5zM197 502q0 -191 119 -305.5t296 -114.5t296.5 114.5t119.5 305.5q0 192 -120 312t-296 120t-295.5 -120t-119.5 -312z" />
<glyph unicode="p" horiz-adv-x="1294" d="M166 -489v1501h98v-240q61 117 176.5 185.5t261.5 68.5q214 -8 353 -146t139 -374q0 -124 -40 -224.5t-110 -165.5t-163 -99.5t-201 -34.5q-133 0 -244 64t-174 187v-722h-96zM270 504q0 -185 117.5 -305.5t292.5 -120.5q180 0 297 111.5t117 316.5t-116.5 314.5 t-297.5 109.5q-177 0 -293.5 -120t-116.5 -306z" />
<glyph unicode="q" horiz-adv-x="1294" d="M100 506q0 236 139 374t353 146q146 0 261.5 -68.5t176.5 -185.5v240h98v-1501h-96v722q-63 -123 -174 -187t-244 -64q-108 0 -201 34.5t-163 99.5t-110 165.5t-40 224.5zM201 506q0 -138 56 -236.5t148 -145t209 -46.5q175 0 292.5 120.5t117.5 305.5q0 186 -116.5 306 t-293.5 120q-181 0 -297 -109.5t-116 -314.5z" />
<glyph unicode="r" horiz-adv-x="825" d="M166 0v1012h94l4 -181q44 96 137 143.5t199 47.5h10q108 0 207 -59l-45 -82q-75 47 -172 47q-140 -1 -237 -100t-97 -238v-590h-100z" />
<glyph unicode="s" horiz-adv-x="1026" d="M80 186l74 66q60 -86 160.5 -129t209.5 -43q53 0 101.5 8t99 27.5t82 59.5t33.5 97q1 30 -9 55.5t-24.5 43t-43 33t-52 24.5t-64 18.5t-66 14.5t-71.5 12q-53 9 -84.5 15t-78.5 18t-74.5 24t-61 33t-51 45.5t-30.5 59.5t-13 81q1 69 33 124q34 56 91 89.5t127 49.5 q66 16 141 16h9q233 0 377 -135l-61 -66q-71 63 -145.5 85t-170.5 22h-8q-77 0 -142 -18q-68 -18 -112 -62q-43 -42 -43 -101v-5q1 -37 20.5 -66.5t48 -47.5t69.5 -32t77 -21.5t79 -15.5q9 -1 13 -2q161 -28 220 -47q172 -57 195 -190q4 -28 3 -60q-2 -79 -41.5 -137 t-103.5 -88t-131 -43.5t-140 -13.5q-139 0 -258.5 52t-183.5 150z" />
<glyph unicode="t" horiz-adv-x="770" d="M68 928v84h215v295l98 10v-305h344v-84h-344v-617q0 -56 7 -95t26.5 -72t57.5 -49.5t95 -16.5q72 0 156 41l35 -82q-104 -51 -191 -51q-154 0 -219 83t-65 242v617h-215z" />
<glyph unicode="u" horiz-adv-x="1232" d="M152 430v584h100v-582q0 -168 96 -260q94 -90 257 -90h7q156 1 255.5 106t99.5 263v563h100v-1014h-98v182q-56 -99 -152 -147.5t-209 -50.5q-206 0 -331 119t-125 327z" />
<glyph unicode="v" horiz-adv-x="1110" d="M76 1012h110l369 -895l369 895h110l-424 -1012h-110z" />
<glyph unicode="w" horiz-adv-x="1683" d="M82 1012h111l305 -895l309 895h72l307 -895l303 895h110l-358 -1012h-111l-163 442l-123 394l-127 -396l-164 -440h-111z" />
<glyph unicode="x" horiz-adv-x="970" d="M35 0v4l391 520l-363 484v4h121l301 -414l301 414h121v-4l-362 -484l391 -520v-4h-119l-332 453l-331 -453h-119z" />
<glyph unicode="y" horiz-adv-x="1091" d="M80 1012h108l236 -598l119 -293l116 295l254 596h109l-643 -1501h-107l213 501z" />
<glyph unicode="z" horiz-adv-x="933" d="M61 0v35l646 887h-613v90h762v-39l-639 -879h639v-94h-795z" />
<glyph unicode="{" horiz-adv-x="622" d="M76 565v80q162 0 162 242v276q0 119 27.5 186t96.5 92t187 3v-70q-131 20 -176 -25t-45 -186v-276q0 -34 -1.5 -57.5t-5.5 -56t-14 -55.5t-25.5 -46.5t-41.5 -40t-60 -25.5q41 -10 69.5 -33t43.5 -49t23.5 -64.5t10 -66.5t1.5 -69v-301q0 -139 45 -181.5t176 -19.5v-78 q-55 -8 -98 -8t-75.5 7t-56 23.5t-39.5 39t-25 56t-13 72t-4 89.5v301q0 241 -162 241z" />
<glyph unicode="|" horiz-adv-x="483" d="M188 -242v1686h107v-1686h-107z" />
<glyph unicode="}" horiz-adv-x="620" d="M72 -190q131 -23 176 19t45 181v301q0 41 1.5 69t9.5 67t23 64.5t43.5 49t69.5 33.5q-34 9 -59.5 25t-41 40t-25.5 47t-14.5 55t-5.5 55.5t-1 57.5v277q0 141 -45 186t-176 25v70q118 22 187 -3t96.5 -92t27.5 -186v-277q0 -241 162 -241v-80q-162 0 -162 -242v-301 q0 -51 -4 -89.5t-13 -72t-25 -56t-39.5 -38.5t-56 -23t-75.5 -7t-98 8v78z" />
<glyph unicode="~" horiz-adv-x="1320" d="M160 573q40 91 104.5 145t148.5 62.5t179 -43.5l209 -119q61 -32 112.5 -37t97.5 27.5t72 108.5l84 -33q-53 -140 -155.5 -184.5t-239.5 22.5l-223 129q-106 50 -189.5 15.5t-123.5 -129.5z" />
<glyph unicode="&#xa1;" horiz-adv-x="450" d="M141 950q0 50 40.5 70.5t81 0t40.5 -70.5t-40.5 -70.5t-81 0t-40.5 70.5zM174 -412h105v1145h-105v-1145z" />
<glyph unicode="&#xa2;" horiz-adv-x="1101" d="M100 485q0 218 132.5 356.5t340.5 157.5v123h99v-123q186 -19 319 -149l-69 -64q-126 123 -299 123q-88 0 -164 -27.5t-134.5 -79.5t-92 -133.5t-33.5 -183.5q0 -137 58.5 -234.5t152.5 -142.5t213 -45q169 0 299 127l69 -71q-135 -132 -319 -148v-145h-99v145 q-134 12 -239.5 73.5t-169.5 175.5t-64 265z" />
<glyph unicode="&#xa3;" horiz-adv-x="1318" d="M121 0v92q78 80 124.5 152.5t62.5 140t15 122.5t-16 124h-186v88h164q-1 4 -8.5 30.5t-9 33.5t-8 31t-8.5 35t-6.5 34t-6.5 38t-4.5 36t-3.5 41t-1 40q0 102 39 181.5t107.5 128t155.5 73.5t188 25q75 0 140 -11t125.5 -38t103 -68t68 -106t26.5 -148h-95q-1 65 -23 115 t-57.5 80t-85 49t-98 26t-104.5 7q-175 0 -282 -81t-107 -233q0 -39 6 -85.5t12 -74t20 -86t17 -73.5h530v-88h-512q13 -75 14 -136t-12 -130.5t-53.5 -136t-107.5 -130.5h952v-98h-1075z" />
<glyph unicode="&#xa4;" horiz-adv-x="1171" d="M137 279l123 122q-89 112 -89.5 264.5t87.5 266.5l-121 121l72 71l121 -123q108 80 256 80q146 0 254 -80l123 123l71 -71l-121 -121q88 -114 87 -266t-89 -265l123 -122l-71 -72l-125 123q-102 -76 -252 -76q-147 0 -254 76l-123 -123zM272 668.5q0 -59.5 20.5 -117 t58 -102t98.5 -72t137 -27.5q75 0 136 27.5t98.5 72t57.5 102t20 117t-20 117t-57.5 102t-98.5 72t-136 27.5q-76 0 -137 -27.5t-98.5 -72t-58 -102t-20.5 -117z" />
<glyph unicode="&#xa5;" horiz-adv-x="1353" d="M61 1432v2h125l490 -754l491 754h125v-2l-520 -793h285v-84h-328v-129h328v-84h-328v-342h-108v342h-316v84h316v129h-316v84h273z" />
<glyph unicode="&#xa6;" horiz-adv-x="487" d="M188 -180v743h111v-743h-111zM188 700v746h111v-746h-111z" />
<glyph unicode="&#xa7;" horiz-adv-x="1105" d="M119 164l74 63q60 -83 160.5 -125.5t209.5 -42.5q52 0 101.5 8t99.5 27.5t82 59t35 94.5q1 39 -18 69.5t-41 47.5t-73.5 32t-80 20.5t-95.5 16.5q-5 1 -8 1.5t-7.5 1t-8.5 1.5q-65 10 -117 23t-105.5 35.5t-89.5 51t-59 71t-24 94.5q-2 75 50.5 144t139.5 99 q-89 32 -139 86.5t-51 145.5q-1 70 33 125t91.5 87.5t128.5 48.5t150 15q236 0 377 -133l-62 -63q-71 61 -145 82.5t-170 21.5q-82 1 -150.5 -18t-112.5 -61.5t-42 -102.5q1 -28 12.5 -52t26.5 -40.5t43.5 -31.5t49.5 -23.5t58.5 -17.5t57 -13t57.5 -11q48 -8 82 -14 t82 -18.5t81.5 -26t70 -35.5t58 -48t35 -62.5t11.5 -79.5q-5 -179 -209 -228q100 -30 156.5 -87.5t52.5 -159.5q-2 -63 -29 -112.5t-68 -80t-97 -50t-110 -27t-112 -7.5q-139 0 -258.5 51.5t-183.5 147.5zM252 715q1 -48 36.5 -86.5t91.5 -59.5t123.5 -31.5t134.5 -2t122 29 t89 62t32 96.5q-1 47 -36.5 86t-92 61.5t-124.5 35t-135 4.5t-122 -28.5t-88 -64t-31 -102.5z" />
<glyph unicode="&#xa8;" horiz-adv-x="931" d="M131 1389q0 50 40.5 70.5t81 0t40.5 -70.5t-40.5 -70.5t-81 0t-40.5 70.5zM569 1389q0 50 40.5 70.5t81 0t40.5 -70.5t-40.5 -70.5t-81 0t-40.5 70.5z" />
<glyph unicode="&#xa9;" horiz-adv-x="1712" d="M117 713q0 123 31 234.5t93 205t149.5 162t207 107t258.5 38.5t258 -38.5t206.5 -107t150 -162t93.5 -205t31 -234.5q0 -122 -31 -233.5t-93.5 -205t-150 -163t-206.5 -108t-258 -38.5q-173 0 -315 59.5t-233.5 162.5t-141 238t-49.5 288zM219 713q0 -184 73.5 -331.5 t220 -236t343.5 -88.5q149 0 270 51t200.5 140t122 208.5t42.5 256.5q0 138 -42.5 257.5t-122 208.5t-200.5 140t-270 51t-270.5 -51t-201 -140t-122.5 -208.5t-43 -257.5zM479 719q0 -170 116 -286t286 -116q166 0 280 117l-71 76q-88 -88 -209 -88q-126 0 -211.5 85.5 t-85.5 211.5q0 125 85.5 210t211.5 85q120 0 209 -86l71 73q-114 117 -280 117q-170 0 -286 -115t-116 -284z" />
<glyph unicode="&#xaa;" horiz-adv-x="1024" d="M152 1106q0 155 97 247.5t240 92.5q78 0 149 -35.5t112 -101.5v127h90v-664h-90v129q-44 -67 -113.5 -102t-147.5 -35q-143 0 -240 93.5t-97 248.5zM176 547v98h684v-98h-684zM254 1106q0 -108 70 -178t172 -70q77 0 134 36.5t82.5 91.5t25.5 119t-25.5 119t-82.5 91.5 t-134 36.5q-103 0 -172.5 -69.5t-69.5 -176.5z" />
<glyph unicode="&#xab;" horiz-adv-x="796" d="M102 608l283 449h107v-10l-277 -439l277 -438v-12h-107zM295 608l283 449h106v-10l-276 -439l276 -438v-12h-106z" />
<glyph unicode="&#xac;" horiz-adv-x="1028" d="M158 637v104h710v-383h-102v279h-608z" />
<glyph unicode="&#xad;" horiz-adv-x="1015" d="M150 535v102h716v-102h-716z" />
<glyph unicode="&#xae;" horiz-adv-x="1712" d="M117 713q0 123 31 234.5t93.5 205t150 162t206.5 107t258 38.5t258.5 -38.5t207 -107t149.5 -162t93 -205t31 -234.5q0 -153 -49.5 -288t-141 -238t-233.5 -162.5t-315 -59.5q-139 0 -258 38.5t-206.5 108t-150 163t-93.5 205t-31 233.5zM221 713q0 -137 42.5 -256.5 t122 -208.5t200.5 -140t270 -51q197 0 343.5 88.5t220 236t73.5 331.5q0 138 -43 257.5t-122.5 208.5t-201 140t-270.5 51t-270 -51t-200.5 -140t-122 -208.5t-42.5 -257.5zM584 332h96v295h170l256 -295h106v16l-245 279q64 8 113.5 39t74 75t34.5 95t-5 100t-44.5 89.5 t-84 65.5t-123.5 25h-348v-784zM680 713v309h252q45 0 80.5 -17t53.5 -44.5t26.5 -60.5t-1 -65.5t-28.5 -60t-55 -44.5t-82 -17h-246z" />
<glyph unicode="&#xaf;" horiz-adv-x="806" d="M72 1343v95h643v-95h-643z" />
<glyph unicode="&#xb0;" horiz-adv-x="665" d="M118 1284q0 52 22.5 96.5t73.5 74.5t120 30t119 -30t73 -74.5t23 -96.5t-23 -96.5t-73 -74.5t-119 -30t-120 30t-73.5 74.5t-22.5 96.5zM208.5 1285q-0.5 -32 12 -59t42 -45t71.5 -18q57 0 89 38t32 84t-32 84t-89 38q-39 0 -68 -18t-43 -45t-14.5 -59z" />
<glyph unicode="&#xb1;" horiz-adv-x="1077" d="M158 707v92h334v336h94v-336h332v-92h-332v-340h-94v340h-334zM174 96v97h733v-97h-733z" />
<glyph unicode="&#xb2;" horiz-adv-x="733" d="M92 877v163q0 72 41 124t104 76t138 24q174 0 174 135q0 131 -178 131q-39 0 -67.5 -4.5t-56.5 -17.5t-42.5 -40.5t-14.5 -68.5h-94q0 62 23.5 106.5t65 67.5t87.5 33t101 10q52 0 97 -10t86 -33t65 -67.5t24 -106.5q0 -57 -19.5 -99t-47.5 -65t-67.5 -36.5t-70 -17 t-65.5 -3.5q-28 0 -55.5 -5.5t-59 -19.5t-51 -43.5t-19.5 -71.5v-61h449v-100h-547z" />
<glyph unicode="&#xb3;" horiz-adv-x="729" d="M82 1090h98q0 -127 180 -127q32 0 60 5t59 17.5t49.5 41t18.5 69.5q0 42 -45 80t-135 38h-113v89h104q43 0 80.5 9.5t67 36.5t29.5 68q0 45 -47.5 81t-129.5 36q-28 0 -56 -6t-57 -19.5t-47 -41t-18 -66.5h-88q0 56 22 99t60.5 67.5t84.5 36.5t99 12q113 0 192 -52 t79 -149q0 -61 -32.5 -102.5t-86.5 -55.5q62 -16 97.5 -63.5t35.5 -97.5q0 -64 -24 -110t-66.5 -70.5t-90 -35t-104.5 -10.5q-55 0 -102 11.5t-87 36t-63 68.5t-24 104z" />
<glyph unicode="&#xb4;" horiz-adv-x="458" d="M80 1182v8l153 246h134v-2l-189 -252h-98z" />
<glyph unicode="&#xb5;" horiz-adv-x="1220" d="M182 -463v1469h101v-611q0 -130 73 -223t177.5 -116.5t209 -2.5t177.5 120.5t73 250.5v582h101v-1006h-86l-7 143q-35 -62 -95.5 -105.5t-130.5 -62.5t-146.5 -17.5t-143 23.5t-120 65.5t-78.5 103.5v-613h-105z" />
<glyph unicode="&#xb6;" horiz-adv-x="1601" d="M75.5 805.5q-24.5 110.5 3 220.5t84.5 201t165 148t245 57h957v-91h-217v-1783h-96v1783h-551v-1783h-101v841q-139 0 -247 57t-163 148t-79.5 201.5z" />
<glyph unicode="&#xb7;" horiz-adv-x="460" d="M150 594q0 50 40 70.5t80.5 0t40.5 -70.5t-40.5 -70.5t-80.5 0t-40 70.5z" />
<glyph unicode="&#xb8;" horiz-adv-x="606" d="M45 -315l57 55q56 -80 154 -80q46 0 82.5 20t46.5 58q19 62 -33 101t-159 16l-13 10l41 180h80l-27 -119q79 4 129 -28t63.5 -79t0.5 -100q-19 -71 -78.5 -107t-132.5 -36q-66 0 -124 28t-87 81z" />
<glyph unicode="&#xb9;" horiz-adv-x="493" d="M78 874v84h129v533l-113 -29v90l211 47v-641h133v-84h-360z" />
<glyph unicode="&#xba;" horiz-adv-x="993" d="M158 1106q0 155 97.5 247.5t240.5 92.5t240.5 -92.5t97.5 -247.5t-97.5 -248.5t-240.5 -93.5t-240.5 93.5t-97.5 248.5zM170 532v99h653v-99h-653zM260 1106q0 -108 67 -178t169 -70t168.5 70t66.5 178t-66.5 177t-168.5 69t-169 -69t-67 -177z" />
<glyph unicode="&#xbb;" horiz-adv-x="796" d="M113 160v12l276 438l-276 439v10h106l283 -449l-283 -450h-106zM305 160v12l277 438l-277 439v10h107l282 -449l-282 -450h-107z" />
<glyph unicode="&#xbc;" horiz-adv-x="1468" d="M102 713v84h129v532l-112 -29v91l211 47v-641h133v-84h-361zM289 -4l760 1444h110l-762 -1444h-108zM817 238l359 491h133v-477h86v-90h-86v-160h-92v160h-394zM932 252h285v387z" />
<glyph unicode="&#xbd;" horiz-adv-x="1589" d="M102 715v84h129v532l-112 -28v90l211 47v-641h133v-84h-361zM285 -4l759 1444h111l-762 -1444h-108zM942 0v164q0 106 83 164.5t200 58.5q174 0 174 135q0 131 -178 131q-39 0 -67.5 -4.5t-56.5 -17.5t-42.5 -40.5t-14.5 -68.5h-94q0 62 23.5 106.5t65 67.5t87.5 33 t101 10q52 0 97 -10t86 -33t65 -67.5t24 -106.5q0 -57 -19.5 -99t-47.5 -65t-67.5 -36.5t-70 -17t-65.5 -3.5q-28 0 -55.5 -5.5t-59 -19t-51 -43t-19.5 -71.5v-76h443v-86h-541z" />
<glyph unicode="&#xbe;" horiz-adv-x="1546" d="M92 942h96q0 -125 177 -125q24 0 46 2.5t48.5 10.5t45 22t31.5 38.5t13 57.5q0 41 -45 79t-133 38h-111v86h102q42 0 79.5 9.5t66.5 36.5t29 67q0 44 -47 79t-128 35q-27 0 -54.5 -6t-55.5 -19.5t-46 -41t-18 -64.5h-86q0 56 22 98t59.5 66t82.5 35.5t96 11.5 q112 0 189.5 -50.5t77.5 -145.5q0 -60 -32 -101t-85 -55q60 -14 95.5 -61.5t35.5 -96.5q0 -63 -23.5 -107.5t-65.5 -68.5t-89 -34.5t-103 -10.5q-73 0 -130.5 18.5t-98 68.5t-41.5 128zM397 -4l760 1444h111l-762 -1444h-109zM893 238l358 491h133v-477h86v-90h-86v-160h-92 v160h-393zM1008 252h284v387z" />
<glyph unicode="&#xbf;" horiz-adv-x="1241" d="M74 -31q1 -95 33.5 -168.5t85.5 -118.5t126.5 -73.5t148 -39.5t159.5 -11q81 0 156.5 13t148 44.5t126 78t86 119t32.5 162.5h-107q-1 -74 -29.5 -131.5t-72.5 -92t-104 -56.5t-117.5 -30.5t-118.5 -8.5q-449 0 -449 313q0 233 219 299q189 55 255.5 151t66.5 308h-103 q0 -69 -3 -113t-13.5 -82.5t-25.5 -61t-45 -43.5t-65.5 -35t-92.5 -32q-55 -16 -102.5 -43.5t-94 -72.5t-73.5 -116t-27 -159zM580 942q0 50 40 70.5t79.5 0t39.5 -70.5t-39.5 -70.5t-79.5 0t-40 70.5z" />
<glyph unicode="&#xc0;" horiz-adv-x="1513" d="M53 0l643 1434h121l643 -1434h-119l-157 352h-856l-156 -352h-119zM371 455h770l-385 872zM526 1833v2h133l154 -246v-8h-98z" />
<glyph unicode="&#xc1;" horiz-adv-x="1513" d="M53 0h119l156 352h856l157 -352h119l-643 1434h-121zM371 455l385 872l385 -872h-770zM690 1579v8l154 246h133v-2l-189 -252h-98z" />
<glyph unicode="&#xc2;" horiz-adv-x="1513" d="M53 0h119l156 352h856l157 -352h119l-643 1434h-121zM371 455l385 872l385 -872h-770zM424 1554v15l291 270h82l290 -270v-15h-108l-223 197l-224 -197h-108z" />
<glyph unicode="&#xc3;" horiz-adv-x="1513" d="M53 0l643 1434h121l643 -1434h-119l-157 352h-856l-156 -352h-119zM371 455h770l-385 872zM500 1630q7 59 44 96.5t85 41t100 -18.5l84 -45q26 -10 50.5 -12t45.5 15t29 50l70 -22q-6 -61 -43.5 -98t-86 -40t-100.5 19l-84 45q-36 20 -75 7.5t-50 -60.5z" />
<glyph unicode="&#xc4;" horiz-adv-x="1513" d="M53 0h119l156 352h856l157 -352h119l-643 1434h-121zM371 455l385 872l385 -872h-770zM459 1661q0 50 40.5 70.5t81 0t40.5 -70.5t-40.5 -70.5t-81 0t-40.5 70.5zM897 1661q0 50 40.5 70.5t81 0t40.5 -70.5t-40.5 -70.5t-81 0t-40.5 70.5z" />
<glyph unicode="&#xc5;" horiz-adv-x="1513" d="M53 0l637 1419q-69 18 -107 68t-38 127q0 92 63 144t152 52t154 -51.5t65 -144.5q0 -76 -42.5 -127.5t-113.5 -69.5l637 -1417h-119l-157 352h-856l-156 -352h-119zM371 455h770l-385 872zM641.5 1575q7.5 -36 39 -61t77.5 -25q48 0 81.5 25t41 61t0 72t-41 61t-81.5 25 q-46 0 -77.5 -25t-39 -61t0 -72z" />
<glyph unicode="&#xc6;" horiz-adv-x="1902" d="M-23 0l873 1434h917v-101h-747v-561h706v-100h-706v-568h776v-104h-878v508h-512l-302 -508h-127zM465 608h453v742h-11z" />
<glyph unicode="&#xc7;" horiz-adv-x="1464" d="M113 709q-1 116 27.5 224t89 202t147 164t208 110.5t265.5 40.5t280.5 -55t241.5 -160l-76 -66q-90 90 -206 136.5t-240 46.5q-122 0 -225.5 -33.5t-178 -92.5t-126.5 -139.5t-77 -175t-24 -198.5q2 -128 43 -240t118 -199t198 -137.5t272 -50.5q124 0 240.5 46.5 t207.5 135.5l74 -69q-102 -102 -234 -157t-272 -58l-24 -109q60 3 104.5 -15t65 -48t28.5 -68t-4 -76q-19 -71 -79.5 -109t-133.5 -38q-66 0 -125 28.5t-88 81.5l60 58q56 -80 153 -80q46 0 82.5 20t46.5 58q19 62 -34 100.5t-160 15.5l-13 11l43 172q-161 11 -291 73 t-212.5 160.5t-126.5 223.5t-45 266z" />
<glyph unicode="&#xc8;" horiz-adv-x="1329" d="M203 0v1434h989v-105h-881v-557h840v-100h-840v-566h906v-106h-1014zM532 1851v2h134l153 -245v-9h-98z" />
<glyph unicode="&#xc9;" horiz-adv-x="1329" d="M203 0h1014v106h-906v566h840v100h-840v557h881v105h-989v-1434zM631 1593v9l153 245h134v-2l-189 -252h-98z" />
<glyph unicode="&#xca;" horiz-adv-x="1329" d="M203 0h1014v106h-906v566h840v100h-840v557h881v105h-989v-1434zM385 1583v14l291 271h82l291 -271v-14h-109l-223 197l-223 -197h-109z" />
<glyph unicode="&#xcb;" horiz-adv-x="1329" d="M203 0h1014v106h-906v566h840v100h-840v557h881v105h-989v-1434zM430 1675q0 50 40.5 70.5t81 0t40.5 -70.5t-40.5 -70.5t-81 0t-40.5 70.5zM868 1675q0 50 40.5 70.5t81 0t40.5 -70.5t-40.5 -70.5t-81 0t-40.5 70.5z" />
<glyph unicode="&#xcc;" horiz-adv-x="514" d="M35 1845v2h133l154 -245v-9h-99zM203 0v1434h108v-1434h-108z" />
<glyph unicode="&#xcd;" horiz-adv-x="514" d="M199 1591v8l153 246h133v-2l-188 -252h-98zM203 0h108v1434h-108v-1434z" />
<glyph unicode="&#xce;" horiz-adv-x="514" d="M-49 1556v15l262 268h74l260 -268v-15h-96l-201 195l-201 -195h-98zM203 0h108v1434h-108v-1434z" />
<glyph unicode="&#xcf;" horiz-adv-x="514" d="M12 1659q0 50 40.5 70.5t81 0t40.5 -70.5t-40.5 -70.5t-81 0t-40.5 70.5zM203 0h108v1434h-108v-1434zM340 1659q0 50 40.5 70.5t81 0t40.5 -70.5t-40.5 -70.5t-81 0t-40.5 70.5z" />
<glyph unicode="&#xd0;" horiz-adv-x="1540" d="M78 649v101h137v684h485q141 0 260.5 -39t203 -106t143 -157t89 -191t31.5 -208q2 -111 -24 -216.5t-84.5 -199.5t-143 -164.5t-207 -111.5t-268.5 -41h-485v649h-137zM326 106h374q154 0 276 54.5t195.5 144.5t110.5 200t35 228q-2 91 -26.5 176.5t-74.5 162t-121 133.5 t-173 90.5t-222 33.5h-374v-579h333v-101h-333v-543z" />
<glyph unicode="&#xd1;" horiz-adv-x="1525" d="M203 0v1434h47l964 -1186v1186h109v-1434h-43l-967 1184v-1184h-110zM543 1624q7 59 44 96.5t85 41t100 -18.5l84 -45q26 -10 50.5 -12t45.5 15t29 50l70 -22q-6 -61 -43.5 -98t-86 -40t-100.5 19l-84 45q-36 20 -75 7.5t-50 -60.5z" />
<glyph unicode="&#xd2;" horiz-adv-x="1667" d="M111 719q0 117 28.5 224.5t87.5 201t143.5 163t203.5 109t260 39.5q175 0 315.5 -61t228 -165t133.5 -235.5t45 -279.5q-1 -115 -29.5 -222t-87.5 -201.5t-143 -164.5t-203 -111t-259 -41t-259.5 41t-203.5 112t-143.5 165.5t-88 202.5t-28.5 223zM219 717 q1 -124 40.5 -237t114 -203.5t193.5 -144.5t267 -54t268 54t194.5 144.5t114 203.5t39.5 237q0 127 -39 240t-113.5 202.5t-194 142t-269.5 52.5q-120 0 -221.5 -34t-173.5 -93t-122.5 -139.5t-74.5 -174.5t-23 -196zM616 1855v3h134l153 -246v-8h-98z" />
<glyph unicode="&#xd3;" horiz-adv-x="1667" d="M111 719q0 -115 28.5 -223t88 -202.5t143.5 -165.5t203.5 -112t259.5 -41t259 41t203 111t143 164.5t87.5 201.5t29.5 222q1 148 -45 279.5t-133.5 235.5t-228 165t-315.5 61q-141 0 -260 -39.5t-203.5 -109t-143.5 -163t-87.5 -201t-28.5 -224.5zM219 717q-1 102 23 196 t74.5 174.5t122.5 139.5t173.5 93t221.5 34q150 0 269.5 -52.5t194 -142t113.5 -202.5t39 -240q0 -124 -39.5 -237t-114 -203.5t-194.5 -144.5t-268 -54t-267 54t-193.5 144.5t-114 203.5t-40.5 237zM776 1604v8l154 246h133v-3l-189 -251h-98z" />
<glyph unicode="&#xd4;" horiz-adv-x="1667" d="M111 719q0 -115 28.5 -223t88 -202.5t143.5 -165.5t203.5 -112t259.5 -41t259 41t203 111t143 164.5t87.5 201.5t29.5 222q1 148 -45 279.5t-133.5 235.5t-228 165t-315.5 61q-141 0 -260 -39.5t-203.5 -109t-143.5 -163t-87.5 -201t-28.5 -224.5zM219 717q-1 102 23 196 t74.5 174.5t122.5 139.5t173.5 93t221.5 34q150 0 269.5 -52.5t194 -142t113.5 -202.5t39 -240q0 -124 -39.5 -237t-114 -203.5t-194.5 -144.5t-268 -54t-267 54t-193.5 144.5t-114 203.5t-40.5 237zM516 1595v15l291 270h82l291 -270v-15h-109l-223 197l-223 -197h-109z " />
<glyph unicode="&#xd5;" horiz-adv-x="1667" d="M111 719q0 117 28.5 224.5t87.5 201t143.5 163t203.5 109t260 39.5q175 0 315.5 -61t228 -165t133.5 -235.5t45 -279.5q-1 -115 -29.5 -222t-87.5 -201.5t-143 -164.5t-203 -111t-259 -41t-259.5 41t-203.5 112t-143.5 165.5t-88 202.5t-28.5 223zM219 717 q1 -124 40.5 -237t114 -203.5t193.5 -144.5t267 -54t268 54t194.5 144.5t114 203.5t39.5 237q0 127 -39 240t-113.5 202.5t-194 142t-269.5 52.5q-120 0 -221.5 -34t-173.5 -93t-122.5 -139.5t-74.5 -174.5t-23 -196zM580 1657q7 59 44 96.5t85 41t100 -18.5l84 -45 q26 -10 50.5 -12t45.5 15t29 50l69 -23q-6 -61 -43 -98t-85.5 -40t-100.5 19l-84 46q-36 20 -75 7t-50 -61z" />
<glyph unicode="&#xd6;" horiz-adv-x="1667" d="M111 719q0 -115 28.5 -223t88 -202.5t143.5 -165.5t203.5 -112t259.5 -41t259 41t203 111t143 164.5t87.5 201.5t29.5 222q1 148 -45 279.5t-133.5 235.5t-228 165t-315.5 61q-141 0 -260 -39.5t-203.5 -109t-143.5 -163t-87.5 -201t-28.5 -224.5zM219 717q-1 102 23 196 t74.5 174.5t122.5 139.5t173.5 93t221.5 34q150 0 269.5 -52.5t194 -142t113.5 -202.5t39 -240q0 -124 -39.5 -237t-114 -203.5t-194.5 -144.5t-268 -54t-267 54t-193.5 144.5t-114 203.5t-40.5 237zM557 1683q0 50 40.5 70.5t81 0t40.5 -70.5t-40.5 -70.5t-81 0t-40.5 70.5 zM995 1683q0 50 40.5 70.5t81 0t40.5 -70.5t-40.5 -70.5t-81 0t-40.5 70.5z" />
<glyph unicode="&#xd7;" horiz-adv-x="931" d="M143 401l260 263l-253 251l63 64l254 -252l250 250l69 -68l-251 -252l253 -251l-63 -64l-254 252l-260 -260z" />
<glyph unicode="&#xd8;" horiz-adv-x="1667" d="M111 719q0 117 28.5 224.5t87.5 201t143.5 163t203.5 109t260 39.5q195 0 348 -78l102 181h111l-131 -228q144 -100 218 -262.5t74 -353.5q-1 -115 -29.5 -222t-87.5 -201.5t-143 -164.5t-203 -111t-259 -41q-162 0 -308 58l-110 -195h-109l135 238q-161 98 -246 270.5 t-85 372.5zM219 717q0 -167 72 -314t205 -233l634 1118q-135 66 -296 66q-120 0 -221.5 -34t-173.5 -93t-122.5 -139.5t-74.5 -174.5t-23 -196zM580 125q112 -47 254 -47q148 0 268 54t194.5 144.5t114 203.5t39.5 237q0 158 -61 295.5t-177 224.5z" />
<glyph unicode="&#xd9;" horiz-adv-x="1470" d="M186 543v891h109v-891q0 -111 38 -201.5t100 -145.5t141 -85t161.5 -30t161.5 30t141 85.5t100 145.5t38 201v891h108v-891q0 -136 -47 -245.5t-124.5 -177t-176 -104.5t-201.5 -37t-201.5 36.5t-176 104t-124.5 177.5t-47 246zM537 1837v2h133l153 -246v-8h-98z" />
<glyph unicode="&#xda;" horiz-adv-x="1470" d="M186 543q0 -136 47 -246t124.5 -177.5t176 -104t201.5 -36.5t201.5 37t176 104.5t124.5 177t47 245.5v891h-108v-891q0 -111 -38 -201t-100 -145.5t-141 -85.5t-161.5 -30t-161.5 30t-141 85t-100 145.5t-38 201.5v891h-109v-891zM651 1587v8l154 246h133v-2l-188 -252 h-99z" />
<glyph unicode="&#xdb;" horiz-adv-x="1470" d="M186 543q0 -136 47 -246t124.5 -177.5t176 -104t201.5 -36.5t201.5 37t176 104.5t124.5 177t47 245.5v891h-108v-891q0 -111 -38 -201t-100 -145.5t-141 -85.5t-161.5 -30t-161.5 30t-141 85t-100 145.5t-38 201.5v891h-109v-891zM403 1573v14l291 271h82l291 -271v-14 h-109l-223 196l-223 -196h-109z" />
<glyph unicode="&#xdc;" horiz-adv-x="1470" d="M186 543q0 -136 47 -246t124.5 -177.5t176 -104t201.5 -36.5t201.5 37t176 104.5t124.5 177t47 245.5v891h-108v-891q0 -111 -38 -201t-100 -145.5t-141 -85.5t-161.5 -30t-161.5 30t-141 85t-100 145.5t-38 201.5v891h-109v-891zM436 1677q0 50 40.5 70.5t81 0 t40.5 -70.5t-40.5 -70.5t-81 0t-40.5 70.5zM874 1677q0 50 40.5 70.5t81 0t40.5 -70.5t-40.5 -70.5t-81 0t-40.5 70.5z" />
<glyph unicode="&#xdd;" horiz-adv-x="1349" d="M59 1432l559 -859v-573h111v573l561 859v2h-129l-487 -754l-486 754h-129v-2zM592 1591v8l153 246h134v-2l-189 -252h-98z" />
<glyph unicode="&#xde;" horiz-adv-x="1378" d="M203 0v1432h102v-250h526q113 0 204 -40.5t147 -106.5t86.5 -150t30.5 -172t-30.5 -172t-86.5 -150t-147 -106.5t-204 -40.5h-524v-244h-104zM307 344h524q86 0 156 31.5t113 83.5t66 118t23 134.5t-23 134.5t-66 118t-113 83.5t-156 31.5h-524v-735z" />
<glyph unicode="&#xdf;" horiz-adv-x="1218" d="M166 0v1061q0 99 33.5 176t92 124t134.5 71t164 24q92 0 169 -21.5t138 -64.5t95 -115.5t34 -167.5q0 -110 -62 -192.5t-167 -108.5q164 -34 243.5 -140.5t79.5 -270.5q0 -100 -31.5 -178t-85.5 -125t-124.5 -74t-149.5 -30t-160 11t-157 46v94q108 -52 219 -60.5 t197.5 23.5t141 108t54.5 183q0 86 -25.5 151t-66 103.5t-99.5 62.5t-117.5 32.5t-129.5 8.5h-174v90h166q47 0 91.5 6.5t93 24.5t84 46.5t58.5 77t23 111.5q0 67 -21 117.5t-53 80t-78 48t-89.5 25t-92.5 6.5q-89 0 -153 -22.5t-101 -64.5t-55 -95.5t-21 -122.5v-1059h-98z " />
<glyph unicode="&#xe0;" d="M98 506q0 151 69.5 270.5t186.5 183.5t258 64q129 0 241 -59.5t173 -173.5v221h100v-1012h-100v215q-71 -115 -179 -173t-235 -58q-141 0 -258 65t-186.5 185.5t-69.5 271.5zM199 506q0 -187 119 -305.5t294 -118.5q102 0 184.5 36.5t133 96t78 135.5t27.5 155t-27.5 155 t-78 135.5t-133 96t-184.5 36.5q-175 0 -294 -117.5t-119 -304.5zM430 1448v2h133l154 -246v-8h-99z" />
<glyph unicode="&#xe1;" d="M98 506q0 -151 69.5 -271.5t186.5 -185.5t258 -65q127 0 235 58t179 173v-215h100v1012h-100v-221q-61 114 -173 173.5t-241 59.5q-141 0 -258 -64t-186.5 -183.5t-69.5 -270.5zM199 506q0 187 119 304.5t294 117.5q102 0 184.5 -36.5t133 -96t78 -135.5t27.5 -155 t-27.5 -155t-78 -135.5t-133 -96t-184.5 -36.5q-175 0 -294 118.5t-119 305.5zM549 1192v8l153 246h134v-2l-189 -252h-98z" />
<glyph unicode="&#xe2;" d="M98 506q0 -151 69.5 -271.5t186.5 -185.5t258 -65q127 0 235 58t179 173v-215h100v1012h-100v-221q-61 114 -173 173.5t-241 59.5q-141 0 -258 -64t-186.5 -183.5t-69.5 -270.5zM199 506q0 187 119 304.5t294 117.5q102 0 184.5 -36.5t133 -96t78 -135.5t27.5 -155 t-27.5 -155t-78 -135.5t-133 -96t-184.5 -36.5q-175 0 -294 118.5t-119 305.5zM301 1155v14l291 271h82l291 -271v-14h-109l-223 197l-223 -197h-109z" />
<glyph unicode="&#xe3;" d="M98 506q0 151 69.5 270.5t186.5 183.5t258 64q129 0 241 -59.5t173 -173.5v221h100v-1012h-100v215q-71 -115 -179 -173t-235 -58q-141 0 -258 65t-186.5 185.5t-69.5 271.5zM199 506q0 -187 119 -305.5t294 -118.5q102 0 184.5 36.5t133 96t78 135.5t27.5 155t-27.5 155 t-78 135.5t-133 96t-184.5 36.5q-175 0 -294 -117.5t-119 -304.5zM383 1298q7 59 44 96.5t85 41t100 -18.5l84 -45q26 -10 50.5 -12t45.5 15t29 50l70 -22q-6 -61 -43 -98t-85.5 -40t-100.5 19l-84 45q-36 20 -75 7.5t-50 -60.5z" />
<glyph unicode="&#xe4;" d="M98 506q0 -151 69.5 -271.5t186.5 -185.5t258 -65q127 0 235 58t179 173v-215h100v1012h-100v-221q-61 114 -173 173.5t-241 59.5q-141 0 -258 -64t-186.5 -183.5t-69.5 -270.5zM199 506q0 187 119 304.5t294 117.5q102 0 184.5 -36.5t133 -96t78 -135.5t27.5 -155 t-27.5 -155t-78 -135.5t-133 -96t-184.5 -36.5q-175 0 -294 118.5t-119 305.5zM352 1368q0 50 40.5 70.5t81 0t40.5 -70.5t-40.5 -70.5t-81 0t-40.5 70.5zM791 1368q0 50 40.5 70.5t80.5 0t40 -70.5t-40 -70.5t-80.5 0t-40.5 70.5z" />
<glyph unicode="&#xe5;" d="M98 506q0 151 69.5 270.5t186.5 183.5t258 64q129 0 241 -59.5t173 -173.5v221h100v-1012h-100v215q-71 -115 -179 -173t-235 -58q-141 0 -258 65t-186.5 185.5t-69.5 271.5zM199 506q0 -187 119 -305.5t294 -118.5q102 0 184.5 36.5t133 96t78 135.5t27.5 155t-27.5 155 t-78 135.5t-133 96t-184.5 36.5q-175 0 -294 -117.5t-119 -304.5zM426 1335q0 88 62 137.5t151 49.5t154 -49.5t65 -137.5q0 -90 -62 -141t-159 -51t-154 51t-57 141zM516 1335.5q0 -42.5 32 -77.5t89 -35q48 0 81.5 23t41 56.5t0 66.5t-41 56t-81.5 23q-57 0 -89 -35 t-32 -77.5z" />
<glyph unicode="&#xe6;" horiz-adv-x="2115" d="M98 506q0 151 69.5 270.5t186.5 183.5t258 64q130 0 245 -60t175 -173v221h84v-213q64 107 171.5 168t240.5 61q87 0 165 -21t145 -66t113 -110.5t67 -161t10 -210.5h-916q15 -173 134 -274t282 -101q105 0 207 41t157 113l72 -58q-71 -93 -190 -143.5t-246 -50.5 q-135 0 -244 57.5t-172 161.5v-205h-84v215q-71 -115 -180 -173t-236 -58q-141 0 -258 65t-186.5 185.5t-69.5 271.5zM199 506q0 -187 119 -305.5t294 -118.5q102 0 185 36.5t133.5 96t78 135.5t27.5 155t-27.5 155t-78 135.5t-133.5 96t-185 36.5q-175 0 -294 -117.5 t-119 -304.5zM1112 547h825q-1 185 -112 287t-297 102q-163 0 -281 -104.5t-135 -284.5z" />
<glyph unicode="&#xe7;" horiz-adv-x="1071" d="M100 506q0 234 148 375t373 141q101 0 196.5 -39t171.5 -113l-65 -63q-60 60 -139.5 90.5t-163.5 30.5q-116 0 -210.5 -47.5t-153 -145t-58.5 -229.5t58.5 -229.5t153 -145t210.5 -47.5q83 0 161.5 32t139.5 93l67 -68q-151 -151 -368 -151h-3l-22 -99q79 4 128.5 -27.5 t63 -78.5t0.5 -100q-19 -71 -78 -107.5t-132 -36.5q-66 0 -124 28t-87 81l57 55q56 -80 154 -80q46 0 82.5 20t46.5 58q19 62 -33.5 101t-159.5 16l-12 10l37 166q-191 26 -315 163t-124 347z" />
<glyph unicode="&#xe8;" horiz-adv-x="1202" d="M98 506q0 148 69 268.5t186.5 187t258.5 66.5q87 0 165 -21t145 -66t113 -110.5t67 -161t10 -210.5h-911q15 -173 132 -275t279 -102q105 0 207.5 41t157.5 113l72 -58q-71 -93 -190.5 -143.5t-246.5 -50.5q-143 0 -259 62.5t-185.5 182.5t-69.5 277zM201 547h821 q-1 185 -112.5 287t-297.5 102q-162 0 -278 -104t-133 -285zM438 1434v2h133l154 -246v-8h-98z" />
<glyph unicode="&#xe9;" horiz-adv-x="1202" d="M98 506q0 -157 69.5 -277t185.5 -182.5t259 -62.5q127 0 246.5 50.5t190.5 143.5l-72 58q-55 -72 -157.5 -113t-207.5 -41q-162 0 -279 102t-132 275h911q11 115 -10 210.5t-67 161t-113 110.5t-145 66t-165 21q-141 0 -258.5 -66.5t-186.5 -187t-69 -268.5zM201 547 q17 181 133 285t278 104q186 0 297.5 -102t112.5 -287h-821zM543 1182v8l153 246h133v-2l-188 -252h-98z" />
<glyph unicode="&#xea;" horiz-adv-x="1202" d="M98 506q0 -157 69.5 -277t185.5 -182.5t259 -62.5q127 0 246.5 50.5t190.5 143.5l-72 58q-55 -72 -157.5 -113t-207.5 -41q-162 0 -279 102t-132 275h911q11 115 -10 210.5t-67 161t-113 110.5t-145 66t-165 21q-141 0 -258.5 -66.5t-186.5 -187t-69 -268.5zM201 547 q17 181 133 285t278 104q186 0 297.5 -102t112.5 -287h-821zM297 1151v14l291 271h82l291 -271v-14h-109l-223 197l-223 -197h-109z" />
<glyph unicode="&#xeb;" horiz-adv-x="1202" d="M98 506q0 -157 69.5 -277t185.5 -182.5t259 -62.5q127 0 246.5 50.5t190.5 143.5l-72 58q-55 -72 -157.5 -113t-207.5 -41q-162 0 -279 102t-132 275h911q11 115 -10 210.5t-67 161t-113 110.5t-145 66t-165 21q-141 0 -258.5 -66.5t-186.5 -187t-69 -268.5zM201 547 q17 181 133 285t278 104q186 0 297.5 -102t112.5 -287h-821zM328 1354q0 50 40 70.5t80.5 0t40.5 -70.5t-40.5 -70.5t-80.5 0t-40 70.5zM766 1354q0 50 40.5 70.5t81 0t40.5 -70.5t-40.5 -70.5t-81 0t-40.5 70.5z" />
<glyph unicode="&#xec;" horiz-adv-x="432" d="M41 1434v2h115l114 -240v-8h-94zM166 0v1016h100v-1016h-100z" />
<glyph unicode="&#xed;" horiz-adv-x="432" d="M156 1188v8l114 240h115v-2l-135 -246h-94zM166 0h100v1016h-100v-1016z" />
<glyph unicode="&#xee;" horiz-adv-x="432" d="M-8 1176v14l201 246h63l190 -246v-14h-86l-137 172l-143 -172h-88zM166 0h100v1016h-100v-1016z" />
<glyph unicode="&#xef;" horiz-adv-x="432" d="M-2 1348q0 46 38.5 65t77 0t38.5 -65t-38.5 -65t-77 0t-38.5 65zM166 0h100v1016h-100v-1016zM281 1348q0 46 37.5 65t75.5 0t38 -65t-38 -65t-75.5 0t-37.5 65z" />
<glyph unicode="&#xf0;" horiz-adv-x="1245" d="M97 488q0 96 34 187.5t96 163.5t164 116t227 44q213 0 379 -159q-30 102 -110.5 200t-190.5 172l-86 -122l-65 45l84 120q-113 63 -213 88l28 87q139 -46 238 -101l96 137l66 -45l-94 -133q382 -257 389 -770q3 -240 -139 -390.5t-382 -150.5q-125 0 -227 44t-164 116 t-96 163.5t-34 187.5zM200 489.5q0 -78.5 27 -153.5t77 -133.5t131.5 -94.5t182.5 -36t182.5 36t131.5 94.5t77 133.5t27 153.5t-27 153.5t-77 133.5t-131.5 94.5t-182.5 36t-182.5 -36t-131.5 -94.5t-77 -133.5t-27 -153.5z" />
<glyph unicode="&#xf1;" horiz-adv-x="1234" d="M166 0v1012h98v-181q56 99 152 148t209 51q206 0 331 -119t125 -327v-584h-100v582q0 169 -96.5 260.5t-263.5 89.5q-156 -1 -255.5 -106t-99.5 -263v-563h-100zM369 1300q7 55 44 89.5t84.5 38t98.5 -16.5l84 -43q36 -18 75 -6.5t50 55.5l69 -20q-6 -56 -43 -90.5 t-85.5 -37.5t-100.5 17l-84 43q-34 18 -73 6t-50 -55z" />
<glyph unicode="&#xf2;" horiz-adv-x="1224" d="M98 502q0 157 69 278t185.5 184.5t259.5 63.5t259.5 -63.5t185.5 -184.5t69 -278q0 -235 -147 -376.5t-367 -141.5t-367 141.5t-147 376.5zM197 502q0 -191 119 -305.5t296 -114.5t296.5 114.5t119.5 305.5q0 192 -120 312t-296 120t-295.5 -120t-119.5 -312zM410 1444v2 h133l153 -238v-8h-98z" />
<glyph unicode="&#xf3;" horiz-adv-x="1224" d="M98 502q0 -235 147 -376.5t367 -141.5t367 141.5t147 376.5q0 157 -69 278t-185.5 184.5t-259.5 63.5t-259.5 -63.5t-185.5 -184.5t-69 -278zM197 502q0 192 119.5 312t295.5 120t296 -120t120 -312q0 -191 -119.5 -305.5t-296.5 -114.5t-296 114.5t-119 305.5zM547 1188 v8l147 229h129v-2l-182 -235h-94z" />
<glyph unicode="&#xf4;" horiz-adv-x="1224" d="M98 502q0 -235 147 -376.5t367 -141.5t367 141.5t147 376.5q0 157 -69 278t-185.5 184.5t-259.5 63.5t-259.5 -63.5t-185.5 -184.5t-69 -278zM197 502q0 192 119.5 312t295.5 120t296 -120t120 -312q0 -191 -119.5 -305.5t-296.5 -114.5t-296 114.5t-119 305.5zM295 1171 v15l291 270h82l290 -270v-15h-108l-223 197l-224 -197h-108z" />
<glyph unicode="&#xf5;" horiz-adv-x="1224" d="M98 502q0 157 69 278t185.5 184.5t259.5 63.5t259.5 -63.5t185.5 -184.5t69 -278q0 -235 -147 -376.5t-367 -141.5t-367 141.5t-147 376.5zM197 502q0 -191 119 -305.5t296 -114.5t296.5 114.5t119.5 305.5q0 192 -120 312t-296 120t-295.5 -120t-119.5 -312zM369 1294 q7 57 44 93t86 39.5t101 -17.5l84 -43q26 -12 50.5 -12.5t45.5 15.5t29 48l70 -20q-6 -59 -43.5 -95.5t-86 -39t-100.5 19.5l-84 43q-37 18 -76.5 6.5t-50.5 -57.5z" />
<glyph unicode="&#xf6;" horiz-adv-x="1224" d="M98 502q0 -235 147 -376.5t367 -141.5t367 141.5t147 376.5q0 157 -69 278t-185.5 184.5t-259.5 63.5t-259.5 -63.5t-185.5 -184.5t-69 -278zM197 502q0 192 119.5 312t295.5 120t296 -120t120 -312q0 -191 -119.5 -305.5t-296.5 -114.5t-296 114.5t-119 305.5zM324 1317 q0 50 40 70.5t80.5 0t40.5 -70.5t-40.5 -70.5t-80.5 0t-40 70.5zM762 1317q0 50 40.5 70.5t81 0t40.5 -70.5t-40.5 -70.5t-81 0t-40.5 70.5z" />
<glyph unicode="&#xf7;" horiz-adv-x="1144" d="M160 633h827v102h-827v-102zM498 367q0 50 40 70.5t80.5 0t40.5 -70.5t-40.5 -70.5t-80.5 0t-40 70.5zM498 991q0 50 40 70.5t80.5 0t40.5 -70.5t-40.5 -70.5t-80.5 0t-40 70.5z" />
<glyph unicode="&#xf8;" horiz-adv-x="1226" d="M100 504q0 157 69 278t185.5 184.5t259.5 63.5q129 0 238 -53l76 127h104l-104 -174q93 -69 146.5 -179.5t53.5 -246.5q0 -235 -147 -376.5t-367 -141.5q-126 0 -225 45l-84 -142h-102l110 185q-100 66 -156.5 176.5t-56.5 253.5zM199 504q0 -114 44 -202t122 -142 l436 733q-88 43 -187 43q-176 0 -295.5 -120t-119.5 -312zM442 117q73 -33 172 -33q177 0 296.5 114.5t119.5 305.5q0 108 -40.5 196t-112.5 146z" />
<glyph unicode="&#xf9;" horiz-adv-x="1232" d="M152 430v584h100v-582q0 -169 96.5 -260.5t263.5 -89.5q156 1 255.5 106t99.5 263v563h100v-1014h-98v182q-56 -99 -152 -147.5t-209 -50.5q-206 0 -331 119t-125 327zM420 1434v2h133l154 -246v-8h-99z" />
<glyph unicode="&#xfa;" horiz-adv-x="1232" d="M152 430q0 -208 125 -327t331 -119q113 2 209 50.5t152 147.5v-182h98v1014h-100v-563q0 -158 -99.5 -263t-255.5 -106q-167 -2 -263.5 89.5t-96.5 260.5v582h-100v-584zM547 1182v8l153 246h134v-2l-189 -252h-98z" />
<glyph unicode="&#xfb;" horiz-adv-x="1232" d="M152 430q0 -208 125 -327t331 -119q113 2 209 50.5t152 147.5v-182h98v1014h-100v-563q0 -158 -99.5 -263t-255.5 -106q-167 -2 -263.5 89.5t-96.5 260.5v582h-100v-584zM297 1161v15l281 260h79l281 -260v-15h-104l-218 189l-215 -189h-104z" />
<glyph unicode="&#xfc;" horiz-adv-x="1232" d="M152 430q0 -208 125 -327t331 -119q113 2 209 50.5t152 147.5v-182h98v1014h-100v-563q0 -158 -99.5 -263t-255.5 -106q-167 -2 -263.5 89.5t-96.5 260.5v582h-100v-584zM328 1354q0 50 40 70.5t80.5 0t40.5 -70.5t-40.5 -70.5t-80.5 0t-40 70.5zM766 1354 q0 50 40.5 70.5t81 0t40.5 -70.5t-40.5 -70.5t-81 0t-40.5 70.5z" />
<glyph unicode="&#xfd;" horiz-adv-x="1091" d="M80 1012l405 -1000l-213 -501h107l643 1501h-109l-254 -596l-116 -295l-119 293l-236 598h-108zM481 1196v8l144 232h127v-2l-179 -238h-92z" />
<glyph unicode="&#xfe;" horiz-adv-x="1294" d="M166 -422v1854h94l2 -660q61 117 177.5 185.5t262.5 68.5q214 -8 353 -146t139 -374q0 -124 -40 -224.5t-110 -165.5t-163 -99.5t-201 -34.5q-133 0 -244 64t-174 187v-655h-96zM270 504q0 -185 117.5 -305.5t292.5 -120.5q180 0 297 111.5t117 316.5t-116.5 314.5 t-297.5 109.5q-177 0 -293.5 -120t-116.5 -306z" />
<glyph unicode="&#xff;" horiz-adv-x="1091" d="M80 1012l405 -1000l-213 -501h107l643 1501h-109l-254 -596l-116 -295l-119 293l-236 598h-108zM274 1366q0 36 24 56.5t53 20.5t53 -20.5t24 -56.5q0 -47 -38.5 -66.5t-77 0t-38.5 66.5zM692 1366q0 36 24 56.5t53 20.5t53 -20.5t24 -56.5q0 -47 -38.5 -66.5t-77 0 t-38.5 66.5z" />
<glyph unicode="&#x152;" horiz-adv-x="1945" d="M111 719q0 117 28.5 223.5t87.5 198.5t143.5 160t203.5 106.5t260 38.5q78 0 145 -12h831v-99h-741v-563h696v-100h-696v-574h772v-98h-866q-75 -10 -141 -10q-140 0 -259 39.5t-203.5 108t-144 161t-88 199t-28.5 221.5zM219 717q1 -124 40.5 -236.5t114 -202 t193.5 -143t267 -53.5q74 0 141 12v1254q-67 12 -141 12q-150 0 -269.5 -52.5t-194 -142.5t-113.5 -204.5t-38 -243.5z" />
<glyph unicode="&#x153;" horiz-adv-x="2099" d="M100 504q0 157 69 278t185.5 184.5t259.5 63.5q160 0 280 -81.5t175 -227.5q55 138 176 222.5t275 84.5q110 0 203 -34t163.5 -101.5t104.5 -179t20 -254.5q-594 0 -897 -2q15 -172 129.5 -272.5t276.5 -100.5q104 0 202.5 40.5t153.5 113.5l72 -58q-71 -94 -186.5 -144 t-241.5 -50q-155 0 -276.5 82t-174.5 217q-55 -142 -175 -220.5t-280 -78.5q-220 0 -367 141.5t-147 376.5zM199 504q0 -191 119 -305.5t296 -114.5t294.5 114t117.5 306q0 193 -118.5 312.5t-293.5 119.5q-176 0 -295.5 -120t-119.5 -312zM1114 547h807q-1 185 -108.5 287 t-292.5 102q-162 0 -275.5 -104t-130.5 -285z" />
<glyph unicode="&#x178;" horiz-adv-x="1349" d="M59 1432l559 -859v-573h111v573l561 859v2h-129l-487 -754l-486 754h-129v-2zM393 1655q0 36 24 56.5t53 20.5t53 -20.5t24 -56.5q0 -47 -38.5 -66.5t-77 0t-38.5 66.5zM811 1655q0 36 24 56.5t53 20.5t53 -20.5t24 -56.5q0 -47 -38.5 -66.5t-77 0t-38.5 66.5z" />
<glyph unicode="&#x2c6;" horiz-adv-x="862" d="M74 1151v14l291 271h81l291 -271v-14h-108l-223 197l-224 -197h-108z" />
<glyph unicode="&#x2dc;" horiz-adv-x="665" d="M63 1309q7 59 44 96t85.5 40.5t100.5 -18.5l84 -45q26 -10 50.5 -11.5t45.5 15.5t29 50l69 -23q-6 -61 -43 -98t-85.5 -40t-100.5 19l-84 45q-36 20 -75 7.5t-50 -60.5z" />
<glyph unicode="&#x2000;" horiz-adv-x="940" />
<glyph unicode="&#x2001;" horiz-adv-x="1880" />
<glyph unicode="&#x2002;" horiz-adv-x="940" />
<glyph unicode="&#x2003;" horiz-adv-x="1880" />
<glyph unicode="&#x2004;" horiz-adv-x="626" />
<glyph unicode="&#x2005;" horiz-adv-x="470" />
<glyph unicode="&#x2006;" horiz-adv-x="313" />
<glyph unicode="&#x2007;" horiz-adv-x="313" />
<glyph unicode="&#x2008;" horiz-adv-x="235" />
<glyph unicode="&#x2009;" horiz-adv-x="376" />
<glyph unicode="&#x200a;" horiz-adv-x="104" />
<glyph unicode="&#x2010;" horiz-adv-x="1015" d="M150 535v102h716v-102h-716z" />
<glyph unicode="&#x2011;" horiz-adv-x="1015" d="M150 535v102h716v-102h-716z" />
<glyph unicode="&#x2012;" horiz-adv-x="1015" d="M150 535v102h716v-102h-716z" />
<glyph unicode="&#x2013;" horiz-adv-x="1212" d="M150 530v105h913v-105h-913z" />
<glyph unicode="&#x2014;" horiz-adv-x="1431" d="M150 526v105h1132v-105h-1132z" />
<glyph unicode="&#x2018;" horiz-adv-x="428" d="M119 1102l117 334h90l-90 -334h-117z" />
<glyph unicode="&#x2019;" horiz-adv-x="423" d="M123 1090l92 346h117l-119 -346h-90z" />
<glyph unicode="&#x201a;" horiz-adv-x="464" d="M90 -215l92 346h117l-119 -346h-90z" />
<glyph unicode="&#x201c;" horiz-adv-x="694" d="M119 1085l123 345h90l-96 -345h-117zM377 1085l123 345h90l-96 -345h-117z" />
<glyph unicode="&#x201d;" horiz-adv-x="679" d="M123 1106l92 330h117l-119 -330h-90zM381 1106l92 330h117l-119 -330h-90z" />
<glyph unicode="&#x201e;" horiz-adv-x="710" d="M90 -215l92 346h117l-119 -346h-90zM336 -215l92 346h117l-119 -346h-90z" />
<glyph unicode="&#x2022;" horiz-adv-x="782" d="M193 584q0 88 56.5 142t143.5 54q85 0 141 -54t56 -142t-56 -142.5t-141 -54.5q-87 0 -143.5 54.5t-56.5 142.5z" />
<glyph unicode="&#x2026;" horiz-adv-x="1165" d="M150 61q0 50 40 70.5t80.5 0t40.5 -70.5t-40.5 -70.5t-80.5 0t-40 70.5zM504 61q0 50 40.5 70.5t81 0t40.5 -70.5t-40.5 -70.5t-81 0t-40.5 70.5zM854 61q0 50 40.5 70.5t81 0t40.5 -70.5t-40.5 -70.5t-81 0t-40.5 70.5z" />
<glyph unicode="&#x202f;" horiz-adv-x="376" />
<glyph unicode="&#x2039;" horiz-adv-x="604" d="M102 612l283 449h107v-10l-277 -439l277 -438v-12h-107z" />
<glyph unicode="&#x203a;" horiz-adv-x="604" d="M113 154v12l276 438l-276 438v11h106l283 -449l-283 -450h-106z" />
<glyph unicode="&#x205f;" horiz-adv-x="470" />
<glyph unicode="&#x20ac;" horiz-adv-x="1257" d="M86 557v94h119q-2 14 -2 58q0 43 2 63h-119v94h131q17 126 69.5 231t137.5 184.5t211 124t280 44.5q89 0 203 -31l-22 -88q-92 25 -181 25q-256 0 -402 -126t-185 -364h559l-27 -94h-547q-2 -18 -2 -59q0 -48 2 -62h518l-20 -94h-483q34 -229 181.5 -350t405.5 -121 q117 0 226 41l28 -98q-127 -45 -254 -45q-306 0 -477.5 150t-220.5 423h-131z" />
<glyph unicode="&#x2122;" horiz-adv-x="1624" d="M131 1352v82h559v-82h-233v-492h-97v492h-229zM801 860v574h90l235 -301l238 301h86v-574h-96v414l-221 -270h-19l-217 278v-422h-96z" />
<glyph unicode="&#x25fc;" horiz-adv-x="1013" d="M0 0v1014h1014v-1014h-1014z" />
<glyph unicode="&#xfb01;" horiz-adv-x="1120" d="M70 915h206v-915h99v915h317v89h-317v90q0 254 200 254q72 0 127 -31l35 82q-71 41 -157 41q-159 0 -231.5 -92.5t-72.5 -253.5v-90h-206v-89zM829 1341q0 50 40.5 70.5t81 0t40.5 -70.5t-40.5 -70.5t-81 0t-40.5 70.5zM858 0h100v1016h-100v-1016z" />
<glyph unicode="&#xfb02;" horiz-adv-x="1112" d="M70 915v89h206v90q0 161 72.5 253.5t231.5 92.5q80 0 151 -41l-35 -80q-55 31 -121 31q-200 0 -200 -256v-90h311v-89h-311v-915h-99v915h-206zM831 0v1434h101v-1434h-101z" />
</font>
</defs>
</svg>
